Loading...
 * Dettagli Torrent   globale  | Commenti (0) 


- Slender Man (2018).720p.H264.italian.english.Ac3-5.1.sub.ita-MIRCrew -


Download via torrent:
Categoria bittorrent BDRip
Descrizione
Visitate mircrew-releases


Slender Man 2018.720p.H264.italian.english.Ac3-5.1.sub.ita-MIRCrew


NO FOUND ONLY ORIGINAL RELEASE

My release is always in double track audio italian and Original audio
for select it use VLC or dvd player home
not use wmp

Slender Man

2018


Quality MIRCrew on HD 720p da  1,8 gb







Paese di produzione Stati Uniti d'America
Anno 2018
Genere Horror
Regia Sylvain White
Soggetto personaggio creato da Victor Surge
Sceneggiatura David Birke



   Joey King: Wren
   Julia Goldani Telles: Hallie Knudsen
   Jaz Sinclair: Chloe
   Annalise Basso: Katie Jensen
   Taylor Richardson: Lizzie Knudsen
   Alex Fitzalan: Tom
   Michael Reilly Burke: sig. Knudsen
   Jessica Blank: sig.ra Knudsen
   Kevin Chapman: sig. Jensen
   Miguel Nascimento: Kyle
   Javier Botet: Slender Man



In una piccola città del Massachusetts, quattro ragazze eseguono un rituale nel tentativo di sfatare la leggenda di Slender Man. Quando una delle ragazze scompare misteriosamente, iniziano a sospettare che anche lei sia stata vittima dell'essere protagonista di molti racconti spaventosi.



In a small town in Massachusetts, a group of friends, fascinated by the internet lore of the Slender Man, attempt to prove that he doesn't actually exist - until one of them mysteriously goes missing.

 









General

Complete name                            : Slender Man 2018.720p.h264.ita.eng.sub.ita-MIRCrewSlender Man 2018.720p.h264.ita.eng.sub.ita-MIRCrew.mkv
Format                                   : Matroska
Format version                           : Version 4 / Version 2
File size                                : 1.74 GiB
Duration                                 : 1h 33mn
Overall bit rate                         : 2 669 Kbps
Movie name                               : MIRCrew
Encoded date                             : UTC 2018-12-29 10:04:36
Writing application                      : mkvmerge v26.0.0 ('In The Game&#39 64-bit
Writing library                          : Lavf54.63.100
COMMENT                                  : mircrew-releases

Video
ID                                       : 1
Format                                   : AVC
Format/Info                              : Advanced Video Codec
Format profile                           : Main@L4.1
Format settings, CABAC                   : Yes
Format settings, ReFrames                : 2 frames
Codec ID                                 : V_MPEG4/ISO/AVC
Duration                                 : 1h 33mn
Bit rate                                 : 1 900 Kbps
Width                                    : 1 280 pixels
Height                                   : 528 pixels
Display aspect ratio                     : 2.40:1
Frame rate mode                          : Variable
Frame rate                               : 23.976 fps
Color space                              : YUV
Chroma subsampling                       : 4:2:0
Bit depth                                : 8 bits
Scan type                                : Progressive
Bits/(Pixel*Frame)                       : 0.117
Stream size                              : 1.20 GiB (69%)
Title                                    : MIRCrew
Writing library                          : x264 core 130 r2273
Encoding settings                        : cabac=1 / ref=2 / deblock=1:0:0 / analyse=0x1:0x131 / me=hex / subme=7 / psy=1 / psy_rd=1.00:0.00 / mixed_ref=0 / me_range=16 / chroma_me=1 / trellis=1 / 8x8dct=0 / cqm=0 / deadzone=21,11 / fast_pskip=1 / chroma_qp_offset=-2 / threads=6 / lookahead_threads=1 / sliced_threads=0 / nr=0 / decimate=1 / interlaced=0 / bluray_compat=0 / constrained_intra=0 / bframes=3 / b_pyramid=0 / b_adapt=1 / b_bias=0 / direct=3 / weightb=1 / open_gop=0 / weightp=2 / keyint=230 / keyint_min=23 / scenecut=40 / intra_refresh=0 / rc_lookahead=40 / rc=2pass / mbtree=1 / bitrate=1900 / ratetol=1.0 / qcomp=0.60 / qpmin=10 / qpmax=69 / qpstep=4 / cplxblur=20.0 / qblur=0.5 / vbv_maxrate=24000 / vbv_bufsize=24000 / nal_hrd=none / ip_ratio=1.40 / aq=1:1.00
Language                                 : Italian
Default                                  : Yes
Forced                                   : No
DURATION                                 : 01:33:10.585000000
NUMBER_OF_FRAMES                         : 134040
NUMBER_OF_BYTES                          : 1327551764
_STATISTICS_WRITING_APP                  : mkvmerge v26.0.0 ('In The Game&#39 64-bit
_STATISTICS_WRITING_DATE_UTC             : 2019-01-06 14:52:10
_STATISTICS_TAGS                         : BPS DURATION NUMBER_OF_FRAMES NUMBER_OF_BYTES

Audio #1
ID                                       : 2
Format                                   : AC-3
Format/Info                              : Audio Coding 3
Mode extension                           : CM (complete main)
Codec ID                                 : A_AC3
Duration                                 : 1h 33mn
Bit rate mode                            : Constant
Bit rate                                 : 384 Kbps
Channel(s)                               : 6 channels
Channel positions                        : Front: L C R, Side: L R, LFE
Sampling rate                            : 48.0 KHz
Bit depth                                : 16 bits
Compression mode                         : Lossy
Delay relative to video                  : -5ms
Stream size                              : 256 MiB (14%)
Title                                    : Ac3
Language                                 : Italian
Default                                  : Yes
Forced                                   : No
DURATION                                 : 01:33:11.648000000
NUMBER_OF_FRAMES                         : 174739
NUMBER_OF_BYTES                          : 268399104
_STATISTICS_WRITING_APP                  : mkvmerge v26.0.0 ('In The Game&#39 64-bit
_STATISTICS_WRITING_DATE_UTC             : 2019-01-06 14:52:10
_STATISTICS_TAGS                         : BPS DURATION NUMBER_OF_FRAMES NUMBER_OF_BYTES

Audio #2
ID                                       : 3
Format                                   : AC-3
Format/Info                              : Audio Coding 3
Mode extension                           : CM (complete main)
Codec ID                                 : A_AC3
Duration                                 : 1h 33mn
Bit rate mode                            : Constant
Bit rate                                 : 384 Kbps
Channel(s)                               : 6 channels
Channel positions                        : Front: L C R, Side: L R, LFE
Sampling rate                            : 48.0 KHz
Bit depth                                : 16 bits
Compression mode                         : Lossy
Delay relative to video                  : -5ms
Stream size                              : 256 MiB (14%)
Title                                    : Ac3 5.1
Language                                 : English
Default                                  : No
Forced                                   : No
DURATION                                 : 01:33:10.624000000
NUMBER_OF_FRAMES                         : 174707
NUMBER_OF_BYTES                          : 268349952
_STATISTICS_WRITING_APP                  : mkvmerge v26.0.0 ('In The Game&#39 64-bit
_STATISTICS_WRITING_DATE_UTC             : 2019-01-06 14:52:10
_STATISTICS_TAGS                         : BPS DURATION NUMBER_OF_FRAMES NUMBER_OF_BYTES


Info: Per scaricare devi usare un client come uTorrent o Transmission
AnnounceURL
udp://tracker.coppersurfer.tk:6969/announce
Hash 4e83f08f8893a7a9b5d8dd7ee2e38f79d5fc20d0
Peers seeds: 258 , leech: 105
Size 1.74 GB
Completato 1502x
Aggiunto 07.01.19 - 16:01:19
Uploader   robbyrs
Votazione (Voti: 0)


Condividi questo bittorrent:


html/blog:


bbcode/forum:




Aggiungi Commento