Loading...
 * Dettagli Torrent   globale  | Commenti (0) 


- La Capra - La Chevre (1981).H264.italian.French.Ac3.sub.eng-MIRCrew-mux by robbyrs -


Download via torrent:
Categoria bittorrent BDRip
Descrizione
Visitate mircrew-releases


Knock on Wood - La Capra - La Chevre (1981).H264.italian.French.Ac3.sub.eng-MIRCrew-mux by robbyrs


NO FOUND ONLY ORIGINAL RELEASE

My release is always in double track audio italian and Original audio
for select it use VLC or dvd player home
not use wmp

ENGLISH SUBTITLE INSIDE

La Capra

La Chevre - Knock on Wood

(1981)








Titolo originale La chèvre
Lingua originale francese
Paese di produzione Francia
Anno 1981
Durata 90 min
Genere commedia
Regia Francis Veber
Soggetto Francis Veber
Sceneggiatura Francis Veber
Musiche Vladimir Cosma



   Gérard Depardieu: Raymond Campana
   Pierre Richard: François Perrin
   Pedro Armendáriz Jr: il capitano
   Corynne Charbit: Marie Bens
   Maritza Olivares: il padre di famiglia
   André Valardy: Meyer
   Jorge Luke: Arbal
   Sergio Calderón: prigioniero
   Michel Robin: Alexandre Bens
   Robert Dalban: il tecnico



Una ragazza ricchissima, Maria, viene rapita in Messico. La polizia e un detective privato, Campana, non riescono a trovare alcuna traccia. Uno psicologo ha un'idea geniale: siccome Maria è stata sfortunata fin dall'infanzia, potrà rintracciarla solo uno sfortunato come lei.



A daughter of a millionaire, distinguish by incredible bad luck, goes missing. The idea how to find her is either insane or brilliant - to send after her an equally unlucky person.  











General
Unique ID                                : 222805267501780206764143787282680792762 (0xA79EBBD026C3BDD6A198A0019A9846BA)
Complete name                            : La Capra - La Chevre (1981).H264.ita.fre.sub.eng-MIRCrewLa Capra - La Chevre (1981).H264.ita.fre.sub.eng-MIRCrew.mkv
Format                                   : Matroska
Format version                           : Version 2
File size                                : 1.22 GiB
Duration                                 : 1h 29mn
Overall bit rate                         : 1 947 Kbps
Movie name                               : MIRCrew
Encoded date                             : UTC 2018-12-24T18:13:14Z
Writing application                      : mkvmerge v5.4.0 ('Piper&#39 built on Mar 10 2012 13:34:39
Writing library                          : Lavf55.12.0

Video
ID                                       : 1
Format                                   : AVC
Format/Info                              : Advanced Video Codec
Format profile                           : High@L4.1
Format settings, CABAC                   : Yes
Format settings, ReFrames                : 4 frames
Codec ID                                 : V_MPEG4/ISO/AVC
Duration                                 : 1h 29mn
Bit rate                                 : 1 300 Kbps
Width                                    : 720 pixels
Height                                   : 432 pixels
Display aspect ratio                     : 1.667
Frame rate mode                          : Variable / Variable
Frame rate                               : 25.000 fps
Color space                              : YUV
Chroma subsampling                       : 4:2:0
Bit depth                                : 8 bits
Scan type                                : Progressive
Bits/(Pixel*Frame)                       : 0.167
Stream size                              : 815 MiB (65%)
Title                                    : MIRCrew
Writing library                          : x264 core 142 r2479 dd79a61
Encoding settings                        : cabac=1 / ref=3 / deblock=1:0:0 / analyse=0x3:0x113 / me=hex / subme=7 / psy=1 / psy_rd=1.00:0.00 / mixed_ref=1 / me_range=16 / chroma_me=1 / trellis=1 / 8x8dct=1 / cqm=0 / deadzone=21,11 / fast_pskip=1 / chroma_qp_offset=-2 / threads=6 / lookahead_threads=1 / sliced_threads=0 / nr=0 / decimate=1 / interlaced=0 / bluray_compat=0 / constrained_intra=0 / bframes=3 / b_pyramid=2 / b_adapt=1 / b_bias=0 / direct=1 / weightb=1 / open_gop=0 / weightp=2 / keyint=250 / keyint_min=25 / scenecut=40 / intra_refresh=0 / rc_lookahead=40 / rc=abr / mbtree=1 / bitrate=1300 / ratetol=1.0 / qcomp=0.60 / qpmin=0 / qpmax=69 / qpstep=4 / vbv_maxrate=62500 / vbv_bufsize=78125 / nal_hrd=none / filler=0 / ip_ratio=1.40 / aq=1:1.00
Language                                 : Italian
Default                                  : Yes
Forced                                   : No
Color primaries                          : BT.470-6 System B, BT.470-6 System G, BT.601-6 625, BT.1358 625, BT.1700 625 PAL, BT.1700 625 SECAM
Transfer characteristics                 : BT.709-5, BT.1361
Matrix coefficients                      : BT.601-6 525, BT.1358 525, BT.1700 NTSC, SMPTE 170M

Audio #1
ID                                       : 2
Format                                   : AC-3
Format/Info                              : Audio Coding 3
Mode extension                           : CM (complete main)
Codec ID                                 : A_AC3
Duration                                 : 1h 29mn
Bit rate mode                            : Constant
Bit rate                                 : 448 Kbps
Channel(s)                               : 2 channels
Channel positions                        : Front: L R
Sampling rate                            : 48.0 KHz
Bit depth                                : 16 bits
Compression mode                         : Lossy
Delay relative to video                  : -120ms
Stream size                              : 288 MiB (23%)
Title                                    : Ita Ac3 mux by robbyrs
Language                                 : Italian
Default                                  : Yes
Forced                                   : No

Audio #2
ID                                       : 3
Format                                   : AC-3
Format/Info                              : Audio Coding 3
Mode extension                           : CM (complete main)
Codec ID                                 : A_AC3
Duration                                 : 1h 29mn
Bit rate mode                            : Constant
Bit rate                                 : 192 Kbps
Channel(s)                               : 2 channels
Channel positions                        : Front: L R
Sampling rate                            : 48.0 KHz
Bit depth                                : 16 bits
Compression mode                         : Lossy
Delay relative to video                  : -5ms
Stream size                              : 123 MiB (10%)
Title                                    : Fre Ac3
Language                                 : French
Default                                  : No
Forced                                   : No

Menu
00:00:00.000                             : :Chapter 1
00:06:30.480                             : :Chapter 2
00:15:32.400                             : :Chapter 3
00:25:40.080                             : :Chapter 4
00:34:51.120                             : :Chapter 5
00:42:14.160                             : :Chapter 6
00:49:56.880                             : :Chapter 7
00:57:13.680                             : :Chapter 8
01:01:23.280                             : :Chapter 9
01:07:54.480                             : :Chapter 10
01:16:15.600                             : :Chapter 11
01:25:09.360                             : :Chapter 12
01:28:49.680                             : :Chapter 13


Info: Per scaricare devi usare un client come uTorrent o Transmission
AnnounceURL
udp://tracker.coppersurfer.tk:6969/announce
Hash bd1f9cd562d256ede569949b76e49db4415dce03
Peers seeds: 33 , leech: 9
Size 1.23 GB
Completato 419x
Aggiunto 07.01.19 - 13:01:06
Uploader   robbyrs
Votazione (Voti: 0)


Condividi questo bittorrent:


html/blog:


bbcode/forum:




Aggiungi Commento