* Dettagli Torrent   globale  | Commenti (0) 


- The.100.4x02.Pesante.Giace.La.Corona.ITA.ENG.1080p.BDMux.x264-Morpheus.mkv -


Download via torrent:
Categoria bittorrent SerieTv
Descrizione
[center]

GIUSEPPEiCV & LITTLELINX
HANNO IL PIACERE DI PRESENTARE

THE 100
STAGIONE 4
BDMUX 720p
Dual LAnguage ITA - ENG
Sub ITA - ENG




.: Dati Serie :.


Nazione: Stati Uniti d'America, Regno Unito
Anno: 2014 -  in produzione
Genere: fantascienza post-apocalittica, distopico, drammatico, azione
Stagione 4
Episodi: 13
Durata: 45 min circa
Lingua: ITA - ENG
Cast:
• Eliza Taylor: Clarke Griffin
• Paige Turco: Abby Griffin
• Thomas McDonell: Finn Collins
• Eli Goree: Wells Jaha
• Bob Morley: Bellamy Blake
• Marie Avgeropoulos: Octavia Blake
• Devon Bostick: Jasper Jordan
• Christopher Larkin: Monty Green
• Isaiah Washington: Thelonious Jaha
• Henry Ian Cusick: Marcus Kane
• Lindsey Morgan: Raven Reyes
• Ricky Whittle: Lincoln[/center]

Set ninety-seven years after a nuclear war has destroyed civilization, when a spaceship housing humanity's lone survivors sends one hundred juvenile delinquents back to Earth, in hopes of possibly re-populating the planet.

In seguito a una terribile guerra nucleare globale la popolazione del pianeta Terra è stata sterminata. Sono passati 97 anni e ciò che rimane del genere umano è una stazione spaziale, l'Arca, che si trovava in orbita al momento del disastro. Ma con l'aumento della popolazione, il deteriorarsi degli impianti di riciclo e l'imminente esaurimento di ossigeno, l'Arca non è più un posto sicuro. I rappresentanti del governo decidono così di inviare sulla Terra cento delinquenti, giovani ragazzi che intraprenderanno un viaggio molto pericoloso per constatare le condizioni del pianeta in modo tale che vi si possa tornare a vivere.
I the 100 riescono ad arrivare sulla Terra ma scopriranno di non essere soli , contrariamente a quanto credevano. Cercheranno in tutti i modi di restare vivi indagando sui segreti che il pianeta nasconde e cercando di instaurare una pacifica convivenza in un luogo dove non esistono leggi né autorità.
In questa quarta stagione, dopo aver distrutto A.L.I.E, l’intelligenza artificiale ritenuta responsabile dello sterminio avvenuto sulla Terra, la vita sul pianeta viene nuovamente messa in pericolo: centinaia di reattori nucleari si stanno infatti sciogliendo a causa di decenni di trascuratezza e abbandono. Evitare l’imminente ondata radioattiva è la chiave per salvare il futuro dell’umanità, qualunque sia il prezzo da pagare.


[center].: Screenshot :.




.: Caratteristiche Tecniche :.[/center]
[spoiler]
The.100.4x01.Echi.ITA.ENG.1080p.BDMux.x264-Morpheus.mkv
Format                                   : Matroska
Format version                           : Version 4 / Version 2
File size                                : 3.00 GiB
Duration                                 : 39mn 53s
Overall bit rate                         : 10.8 Mbps
Encoded date                             : UTC 2017-09-25 06:51:25
Writing application                      : mkvmerge v7.6.0 ('Garden of Dreams') 64bit built on Feb  8 2015 15:12:28
Writing library                          : libebml v1.3.1 + libmatroska v1.4.2
DURATION                                 : 00:39:53.568000000
NUMBER_OF_FRAMES                         : 74799
NUMBER_OF_BYTES                          : 114891264
_STATISTICS_WRITING_APP                  : mkvmerge v7.6.0 ('Garden of Dreams') 64bit built on Feb  8 2015 15:12:28
_STATISTICS_WRITING_DATE_UTC             : 2017-09-25 06:51:25
_STATISTICS_TAGS                         : BPS DURATION NUMBER_OF_FRAMES NUMBER_OF_BYTES

Video
ID                                       : 1
Format                                   : AVC
Format/Info                              : Advanced Video Codec
Format profile                           : High@L4.1
Format settings, CABAC                   : Yes
Format settings, ReFrames                : 4 frames
Codec ID                                 : V_MPEG4/ISO/AVC
Duration                                 : 39mn 53s
Bit rate                                 : 9 766 Kbps
Width                                    : 1 920 pixels
Height                                   : 1 080 pixels
Display aspect ratio                     : 16:9
Frame rate                               : 25.000 fps
Original frame rate                      : 23.976 fps
Color space                              : YUV
Chroma subsampling                       : 4:2:0
Bit depth                                : 8 bits
Scan type                                : Progressive
Bits/(Pixel*Frame)                       : 0.188
Stream size                              : 2.78 GiB (93%)
Writing library                          : x264 core 152 r2851 ba24899
Encoding settings                        : cabac=1 / ref=4 / deblock=1:-3:-3 / analyse=0x3:0x113 / me=umh / subme=8 / psy=1 / psy_rd=1.00:0.00 / mixed_ref=1 / me_range=32 / chroma_me=1 / trellis=2 / 8x8dct=1 / cqm=0 / deadzone=21,11 / fast_pskip=1 / chroma_qp_offset=-2 / threads=24 / lookahead_threads=4 / sliced_threads=0 / nr=0 / decimate=1 / interlaced=0 / bluray_compat=0 / constrained_intra=0 / bframes=3 / b_pyramid=2 / b_adapt=2 / b_bias=0 / direct=3 / weightb=1 / open_gop=0 / weightp=2 / keyint=240 / keyint_min=24 / scenecut=40 / intra_refresh=0 / rc_lookahead=50 / rc=2pass / mbtree=1 / bitrate=9766 / ratetol=1.0 / qcomp=0.60 / qpmin=0 / qpmax=69 / qpstep=4 / cplxblur=20.0 / qblur=0.5 / ip_ratio=1.40 / aq=3:0.80
Default                                  : Yes
Forced                                   : No
DURATION                                 : 00:39:53.520000000
NUMBER_OF_FRAMES                         : 59838
NUMBER_OF_BYTES                          : 3047149165
_STATISTICS_WRITING_APP                  : mkvmerge v7.6.0 ('Garden of Dreams') 64bit built on Feb  8 2015 15:12:28
_STATISTICS_WRITING_DATE_UTC             : 2017-09-25 06:51:25
_STATISTICS_TAGS                         : BPS DURATION NUMBER_OF_FRAMES NUMBER_OF_BYTES

Audio #1
ID                                       : 2
Format                                   : AC-3
Format/Info                              : Audio Coding 3
Mode extension                           : CM (complete main)
Codec ID                                 : A_AC3
Duration                                 : 39mn 53s
Bit rate mode                            : Constant
Bit rate                                 : 192 Kbps
Channel(s)                               : 2 channels
Channel positions                        : Front: L R
Sampling rate                            : 48.0 KHz
Bit depth                                : 16 bits
Compression mode                         : Lossy
Stream size                              : 54.8 MiB (2%)
Title                                    : ITA
Language                                 : Italian
Default                                  : Yes
Forced                                   : Yes

Audio #2
ID                                       : 3
Format                                   : AC-3
Format/Info                              : Audio Coding 3
Mode extension                           : CM (complete main)
Codec ID                                 : A_AC3
Duration                                 : 39mn 53s
Bit rate mode                            : Constant
Bit rate                                 : 384 Kbps
Channel(s)                               : 6 channels
Channel positions                        : Front: L C R, Side: L R, LFE
Sampling rate                            : 48.0 KHz
Bit depth                                : 16 bits
Compression mode                         : Lossy
Stream size                              : 110 MiB (4%)
Title                                    : ENG
Language                                 : English
Default                                  : No
Forced                                   : No
DURATION                                 : 00:39:23.277000000
NUMBER_OF_FRAMES                         : 620
NUMBER_OF_BYTES                          : 16727
_STATISTICS_WRITING_APP                  : mkvmerge v7.6.0 ('Garden of Dreams') 64bit built on Feb  8 2015 15:12:28
_STATISTICS_WRITING_DATE_UTC             : 2017-09-25 06:51:25
_STATISTICS_TAGS                         : BPS DURATION NUMBER_OF_FRAMES NUMBER_OF_BYTES

Text #1
ID                                       : 4
Format                                   : UTF-8
Codec ID                                 : S_TEXT/UTF8
Codec ID/Info                            : UTF-8 Plain Text
Title                                    : ITA - Forced
Language                                 : Italian
Default                                  : Yes
Forced                                   : Yes
DURATION                                 : 00:39:23.277000000
NUMBER_OF_FRAMES                         : 678
NUMBER_OF_BYTES                          : 17988
_STATISTICS_WRITING_APP                  : mkvmerge v7.6.0 ('Garden of Dreams') 64bit built on Feb  8 2015 15:12:28
_STATISTICS_WRITING_DATE_UTC             : 2017-09-25 06:51:25
_STATISTICS_TAGS                         : BPS DURATION NUMBER_OF_FRAMES NUMBER_OF_BYTES

Text #2
ID                                       : 5
Format                                   : UTF-8
Codec ID                                 : S_TEXT/UTF8
Codec ID/Info                            : UTF-8 Plain Text
Language                                 : Italian
Default                                  : No
Forced                                   : No

Text #3
ID                                       : 6
Format                                   : UTF-8
Codec ID                                 : S_TEXT/UTF8
Codec ID/Info                            : UTF-8 Plain Text
Language                                 : English
Default                                  : No
Forced                                   : No

Text #4
ID                                       : 7
Format                                   : UTF-8
Codec ID                                 : S_TEXT/UTF8
Codec ID/Info                            : UTF-8 Plain Text
Title                                    : SDH
Language                                 : English
Default                                  : No
Forced                                   : No
[/spoiler]

[center].: Ringraziamenti :.




RESTATE IN SEED ALTRIMENTI

[/center]

Info: Per scaricare devi usare un client come uTorrent o Transmission
AnnounceURL
http://tracker.tntvillage.scambioetico.org:2710/announce
Hash 24085f54cd6908aff1ce37541c0f0ec1c24cbe57
Peers seeds: 45 , leech: 9
Size 2.99 GB
Completato 2004x
Aggiunto 01.11.17 - 23:11:28
Uploader   ppb1
Votazione (Voti: 0)


Condividi questo bittorrent:


html/blog:


bbcode/forum:




Aggiungi Commento