* Dettagli Torrent   globale  | Commenti (0) 


- Twin Peaks S03e06[Mux 1080p - H264 - Ita Eng Ac3 - Sub Ita Eng] WEBMux by Morpheus -


Download via torrent:
Categoria bittorrent SerieTv
Descrizione
[center]
GIUSEPPEiCV & LITTLELINX
HANNO IL PIACERE DI PRESENTARE


TWIN PEAKS
STAGIONE 3
WEBMux 1080p
ITA - ENG AC3

Trovi tutte le nostre serie su
IL CORSARO VERDE
www.icv-crew.org



.: Dati Serie :.


Nazione: Stati Uniti d'America
Anno: 2017
Genere: drammatico, thriller, horror, fantastico
Stagione 1
Episodi: 18
Durata: 60 min circa
Lingua: ITA - ENG
Cast:
• Kyle MacLachlan : Dale Cooper
• Sheryl Lee Sheryl Lee: Laura Palmer
• Kimmy Robertson: Lucy Moran
• Russ Tamblyn: Dr. Lawrence Jacoby
• Mädchen Amick: Shelly Johnson
• Dana Ashbrook: Bobby Briggs
• Ray Wise: Leland Palmer
• Grace Zabriskie: Sarah Palmer
• Everett McGill: Big Ed Hurley

Picks up 25 years after the inhabitants of a quaint northwestern town are stunned when their homecoming queen is murdered.

Bentornati a Twin Peaks! L'attesissimo sequel della serie tv, creata da David Lynch e Mark Frost, che ha scritto la storia della televisione. Tornano i segreti della misteriosa cittadina sconvolta dall'omicidio di Laura Palmer[/center]


[center].: Screenshot :.





.: Caratteristiche Tecniche :.[/center]
[spoiler]
win.Peaks.3x01.The.Return.Parte.1.ITA.ENG.1080p.AMZN.WEBMux.x264-Morpheus.mkv
Format                                   : Matroska
Format version                           : Version 4 / Version 2
File size                                : 4.66 GiB
Duration                                 : 58mn 5s
Overall bit rate                         : 11.5 Mbps
Encoded date                             : UTC 2017-05-27 08:21:16
Writing application                      : mkvmerge v7.6.0 ('Garden of Dreams') 64bit built on Feb  8 2015 15:12:28
Writing library                          : libebml v1.3.1 + libmatroska v1.4.2
DURATION                                 : 00:56:07.634000000
NUMBER_OF_FRAMES                         : 505
NUMBER_OF_BYTES                          : 13779
_STATISTICS_WRITING_APP                  : mkvmerge v7.6.0 ('Garden of Dreams') 64bit built on Feb  8 2015 15:12:28
_STATISTICS_WRITING_DATE_UTC             : 2017-05-27 08:21:16
_STATISTICS_TAGS                         : BPS DURATION NUMBER_OF_FRAMES NUMBER_OF_BYTES

Video
ID                                       : 1
Format                                   : AVC
Format/Info                              : Advanced Video Codec
Format profile                           : High@L4.1
Format settings, CABAC                   : Yes
Format settings, ReFrames                : 4 frames
Codec ID                                 : V_MPEG4/ISO/AVC
Duration                                 : 58mn 5s
Bit rate                                 : 10.7 Mbps
Width                                    : 1 920 pixels
Height                                   : 1 080 pixels
Display aspect ratio                     : 16:9
Frame rate                               : 25.000 fps
Original frame rate                      : 23.976 fps
Color space                              : YUV
Chroma subsampling                       : 4:2:0
Bit depth                                : 8 bits
Scan type                                : Progressive
Bits/(Pixel*Frame)                       : 0.206
Stream size                              : 4.33 GiB (93%)
Writing library                          : x264 core 144 r2525 40bb568
Encoding settings                        : cabac=1 / ref=4 / deblock=1:-3:-3 / analyse=0x3:0x133 / me=umh / subme=10 / psy=1 / psy_rd=1.00:0.00 / mixed_ref=1 / me_range=48 / chroma_me=1 / trellis=2 / 8x8dct=1 / cqm=0 / deadzone=21,11 / fast_pskip=0 / chroma_qp_offset=-2 / threads=12 / lookahead_threads=2 / sliced_threads=0 / nr=0 / decimate=0 / interlaced=0 / bluray_compat=0 / constrained_intra=0 / bframes=8 / b_pyramid=2 / b_adapt=2 / b_bias=0 / direct=3 / weightb=1 / open_gop=0 / weightp=2 / keyint=250 / keyint_min=23 / scenecut=40 / intra_refresh=0 / rc=crf / mbtree=0 / crf=17.0 / qcomp=0.60 / qpmin=0 / qpmax=69 / qpstep=4 / ip_ratio=1.30 / pb_ratio=1.20 / aq=3:0.80
Language                                 : English
Default                                  : Yes
Forced                                   : No
DURATION                                 : 00:58:05.280000000
NUMBER_OF_FRAMES                         : 87132
NUMBER_OF_BYTES                          : 4750674925
_STATISTICS_WRITING_APP                  : mkvmerge v7.6.0 ('Garden of Dreams') 64bit built on Feb  8 2015 15:12:28
_STATISTICS_WRITING_DATE_UTC             : 2017-05-27 08:21:16
_STATISTICS_TAGS                         : BPS DURATION NUMBER_OF_FRAMES NUMBER_OF_BYTES

Audio #1
ID                                       : 2
Format                                   : AC-3
Format/Info                              : Audio Coding 3
Mode extension                           : CM (complete main)
Codec ID                                 : A_AC3
Duration                                 : 58mn 5s
Bit rate mode                            : Constant
Bit rate                                 : 192 Kbps
Channel(s)                               : 2 channels
Channel positions                        : Front: L R
Sampling rate                            : 48.0 KHz
Bit depth                                : 16 bits
Compression mode                         : Lossy
Stream size                              : 79.8 MiB (2%)
Title                                    : ITA
Language                                 : Italian
Default                                  : Yes
Forced                                   : Yes

Audio #2
ID                                       : 3
Format                                   : AC-3
Format/Info                              : Audio Coding 3
Mode extension                           : CM (complete main)
Codec ID                                 : A_AC3
Duration                                 : 58mn 5s
Bit rate mode                            : Constant
Bit rate                                 : 384 Kbps
Channel(s)                               : 6 channels
Channel positions                        : Front: L C R, Side: L R, LFE
Sampling rate                            : 48.0 KHz
Bit depth                                : 16 bits
Compression mode                         : Lossy
Stream size                              : 160 MiB (3%)
Title                                    : ENG
Language                                 : English
Default                                  : No
Forced                                   : No

Text #1
ID                                       : 4
Format                                   : UTF-8
Codec ID                                 : S_TEXT/UTF8
Codec ID/Info                            : UTF-8 Plain Text
Title                                    : ITA - Forced
Language                                 : Italian
Default                                  : Yes
Forced                                   : Yes

Text #2
ID                                       : 5
Format                                   : UTF-8
Codec ID                                 : S_TEXT/UTF8
Codec ID/Info                            : UTF-8 Plain Text
Language                                 : Italian
Default                                  : No
Forced                                   : No

Text #3
ID                                       : 6
Format                                   : UTF-8
Codec ID                                 : S_TEXT/UTF8
Codec ID/Info                            : UTF-8 Plain Text
Language                                 : English
Default                                  : No
Forced                                   : No


[/spoiler]

[center].: Ringraziamenti :.




RESTATE IN SEED ALTRIMENTI

[/center]

Info: Per scaricare devi usare un client come uTorrent o Transmission
AnnounceURL
http://tracker.tntvillage.scambioetico.org:2710/announce
Hash e1f9d33a01afb0488160079a437c8c26c6e98131
Peers seeds: 88 , leech: 48
Size 5.72 GB
Completato 1113x
Aggiunto 18.06.17 - 04:06:52
Uploader   ppb1
Votazione (Voti: 1)


Condividi questo bittorrent:


html/blog:


bbcode/forum:




Aggiungi Commento