Loading...
 * Dettagli Torrent   globale  | Commenti (1) 


- Unbroken (2014).BRrip.XviD - Italian English.Ac3.5.1.Sub.Ita.Eng.MIRCrew -


Download via torrent:
Categoria bittorrent BDRip
Descrizione
Visita

Unbroken (2014).BRrip.XviD - Italian English.Ac3.5.1.Sub.Ita.Eng.MIRCrew

[center]



NO FOUND ONLY ORIGINAL RELEASE

Unbroken (2014)




 



Titolo originale Unbroken
Lingua originale inglese
Paese di produzione Stati Uniti d'America
Anno 2014
Durata 137 min
Rapporto 2,35 : 1
Genere drammatico, azione, biografico, storico, guerra, sportivo
Regia Angelina Jolie
Soggetto Laura Hillenbrand (libro)
Sceneggiatura Joel ed Ethan Coen, Richard LaGravenese, William Nicholson
Produttore Angelina Jolie, Matthew Baer, Erwin Stoff, Clayton Townsend
Produttore esecutivo Mick Garris
Casa di produzione Universal Pictures, Legendary Pictures
Distribuzione (Italia) Universal Pictures
Fotografia Roger Deakins
Montaggio Tim Squyres
Musiche Alexandre Desplat
Scenografia Jon Hutman
Costumi Louise Frogley
Trucco Shane Thomas




   Jack O'Connell: Louis "Louie" Zamperini
   Domhnall Gleeson: Russell Allen "Phil" Phillips
   Garrett Hedlund: John Fitzgerald
   Jai Courtney: Hugh "Cup" Cuppernell
   Alex Russell: Pete Zamperini
   Maddalena Ischiale: Louise Zamperini
   Finn Wittrock: Francis "Mac" McNamara
   Spencer Lofranco: Harry Brooks
   Luke Treadaway: Miller
   Vincenzo Amato: Anthony Zamperini
   Jordan Patrick Smith: Cliff
   Miyavi: Mutsushiro "The Bird" Watanabe
   C.J. Valleroy: Louis Zamperini da giovane
   John D'Leo: Pete Zamperini da giovane

 
.

Il film si apre mostrando Louis "Louie" Zamperini come bombardiere dell'aviazione nella seconda guerra mondiale durante i bombardamenti dell' isola giapponese di Nauru nel 1943 . L'aereo tuttavia viene gravemente danneggiato durante l'operazione; il pilota, Phil, tuttavia riesce a portare l'aereo all' arresto alla fine della pista grazie ad un pneumatico...........



After a near-fatal plane crash in WWII, Olympian Louis Zamperini spends a harrowing 47 days in a raft with two fellow crewmen before he's caught by the Japanese navy and sent to a prisoner-of-war camp.....












[spoiler]
General
Complete name                            : Unbroken (2014).ita.eng.sub.ita.eng.MIRCrew\Unbroken (2014).ita.eng.sub.ita.eng.MIRCrew.avi
Format                                   : AVI
Format/Info                              : Audio Video Interleave
Format profile                           : OpenDML
File size                                : 2.28 GiB
Duration                                 : 2h 17mn
Overall bit rate                         : 2 379 Kbps
Movie name                               : MIRCrew by robbyrs
Writing application                      : VirtualDubMod 1.5.10.2 (build 2540/release)
Writing library                          : VirtualDubMod build 2540/release

Video
ID                                       : 0
Format                                   : MPEG-4 Visual
Format profile                           : Simple@L3
Format settings, BVOP                    : No
Format settings, QPel                    : No
Format settings, GMC                     : No warppoints
Format settings, Matrix                  : Default (H.263)
Codec ID                                 : XVID
Codec ID/Hint                            : XviD
Duration                                 : 2h 17mn
Bit rate                                 : 1 466 Kbps
Width                                    : 720 pixels
Height                                   : 300 pixels
Display aspect ratio                     : 2.40:1
Frame rate                               : 23.976 fps
Color space                              : YUV
Chroma subsampling                       : 4:2:0
Bit depth                                : 8 bits
Scan type                                : Progressive
Compression mode                         : Lossy
Bits/(Pixel*Frame)                       : 0.283
Stream size                              : 1.41 GiB (62%)
Writing library                          : XviD 64

Audio #1
ID                                       : 1
Format                                   : AC-3
Format/Info                              : Audio Coding 3
Mode extension                           : CM (complete main)
Codec ID                                 : 2000
Duration                                 : 2h 17mn
Bit rate mode                            : Constant
Bit rate                                 : 448 Kbps
Channel(s)                               : 6 channels
Channel positions                        : Front: L C R, Side: L R, LFE
Sampling rate                            : 48.0 KHz
Bit depth                                : 16 bits
Compression mode                         : Lossy
Stream size                              : 440 MiB (19%)
Alignment                                : Split accross interleaves
Interleave, duration                     : 42 ms (1.00 video frame)
Interleave, preload duration             : 500 ms

Audio #2
ID                                       : 2
Format                                   : AC-3
Format/Info                              : Audio Coding 3
Mode extension                           : CM (complete main)
Codec ID                                 : 2000
Duration                                 : 2h 17mn
Bit rate mode                            : Constant
Bit rate                                 : 448 Kbps
Channel(s)                               : 6 channels
Channel positions                        : Front: L C R, Side: L R, LFE
Sampling rate                            : 48.0 KHz
Bit depth                                : 16 bits
Compression mode                         : Lossy
Stream size                              : 440 MiB (19%)
Alignment                                : Split accross interleaves
Interleave, duration                     : 42 ms (1.00 video frame)
Interleave, preload duration             : 500 ms



[/spoiler]

[/center]

Info: Per scaricare devi usare un client come uTorrent o Transmission
AnnounceURL
udp://open.demonii.com:1337/announce
Hash b5d2b3015c461840623fb8a3b35fdb76fa57fb40
Peers seeds: 49 , leech: 20
Size 2.29 GB
Completato 25x
Aggiunto 06.05.15 - 14:05:16
Uploader   robbyrs
Votazione (Voti: 0)


Condividi questo bittorrent:


html/blog:


bbcode/forum:




Aggiungi Commento
Ultimi commenti
  
Here http://flamefile.com/353369 you can download the film in HD  10.99 GB    
28/08 11.04
Tutti commenti (1)