* Dettagli Torrent   globale  | Commenti (0) 


- The Equalizer 2 (2018).720p.H264.italian.english.Ac3-5.1.sub.ita-MIRCrew -


Download via torrent:
Categoria bittorrent BDRip
Descrizione
Visitate mircrew-releases

The Equalizer 2 2018.720p.H264.italian.english.Ac3-5.1.sub.ita-MIRCrew


NO FOUND ONLY ORIGINAL RELEASE


My release is always in double track audio italian and Original audio
for select it use VLC or dvd player home
not use wmp

The Equalizer 2

2018

Quality MIRCrew on HD 720p da  2,2 gb








GENERE: Azione, Thriller
ANNO: 2018
REGIA: Antoine Fuqua
PAESE: USA
DURATA: 121 Min



Denzel Washington, Pedro Pascal, Bill Pullman, Melissa Leo, Jonathan Scarfe, Ashton Sanders, Lexie Roth, Sakina Jaffrey, Caroline Day, Donald Cerrone, Abigail Marlowe, Tamara Hickey, Orson Bean, Kazy Tauginas



è un ex agente delle CIA ora in pensione, inflessibile giustiziere in difesa delle persone oppresse e sfruttate. Ma cosa sarà disposto a fare McCall quando una di queste persone è proprio quella che lui ama?



Robert McCall serves an unflinching justice for the exploited and oppressed, but how far will he go when that is someone he loves?    








General
Unique ID                                : 3705494257874776399993769443653992351 (0x2C9A6F8DF78959076B82406017E3F9F)
Complete name                            : The Equalizer 2 (201.720p.h264.ita.eng.sub.ita-MIRCrewThe Equalizer 2 (201.720p.h264.ita.eng.sub.ita-MIRCrew.mkv
Format                                   : Matroska
Format version                           : Version 2
File size                                : 2.25 GiB
Duration                                 : 2h 0mn
Overall bit rate                         : 2 664 Kbps
Movie name                               : MIRCrew
Encoded date                             : UTC 2018-12-03 12:22:26
Writing application                      : Lavf54.63.100
Writing library                          : Lavf54.63.100
COMMENT                                  : mircrew-releases

Video
ID                                       : 1
Format                                   : AVC
Format/Info                              : Advanced Video Codec
Format profile                           : Main@L4.1
Format settings, CABAC                   : Yes
Format settings, ReFrames                : 2 frames
Codec ID                                 : V_MPEG4/ISO/AVC
Duration                                 : 2h 0mn
Bit rate                                 : 1 900 Kbps
Width                                    : 1 280 pixels
Height                                   : 528 pixels
Display aspect ratio                     : 2.40:1
Frame rate mode                          : Variable
Frame rate                               : 23.976 fps
Color space                              : YUV
Chroma subsampling                       : 4:2:0
Bit depth                                : 8 bits
Scan type                                : Progressive
Bits/(Pixel*Frame)                       : 0.117
Stream size                              : 1.56 GiB (69%)
Writing library                          : x264 core 130 r2273
Encoding settings                        : cabac=1 / ref=2 / deblock=1:0:0 / analyse=0x1:0x131 / me=hex / subme=7 / psy=1 / psy_rd=1.00:0.00 / mixed_ref=0 / me_range=16 / chroma_me=1 / trellis=1 / 8x8dct=0 / cqm=0 / deadzone=21,11 / fast_pskip=1 / chroma_qp_offset=-2 / threads=6 / lookahead_threads=1 / sliced_threads=0 / nr=0 / decimate=1 / interlaced=0 / bluray_compat=0 / constrained_intra=0 / bframes=3 / b_pyramid=0 / b_adapt=1 / b_bias=0 / direct=3 / weightb=1 / open_gop=0 / weightp=2 / keyint=230 / keyint_min=23 / scenecut=40 / intra_refresh=0 / rc_lookahead=40 / rc=abr / mbtree=1 / bitrate=1900 / ratetol=1.0 / qcomp=0.60 / qpmin=10 / qpmax=69 / qpstep=4 / vbv_maxrate=24000 / vbv_bufsize=24000 / nal_hrd=none / ip_ratio=1.40 / aq=1:1.00
Language                                 : Italian
Default                                  : Yes
Forced                                   : No

Audio #1
ID                                       : 2
Format                                   : AC-3
Format/Info                              : Audio Coding 3
Mode extension                           : CM (complete main)
Codec ID                                 : A_AC3
Duration                                 : 2h 0mn
Bit rate mode                            : Constant
Bit rate                                 : 384 Kbps
Channel(s)                               : 6 channels
Channel positions                        : Front: L C R, Side: L R, LFE
Sampling rate                            : 48.0 KHz
Bit depth                                : 16 bits
Compression mode                         : Lossy
Delay relative to video                  : 1mn 5s
Stream size                              : 332 MiB (14%)
Title                                    : AC3 5.1
Language                                 : Italian
Default                                  : Yes
Forced                                   : No

Audio #2
ID                                       : 3
Format                                   : AC-3
Format/Info                              : Audio Coding 3
Mode extension                           : CM (complete main)
Codec ID                                 : A_AC3
Duration                                 : 2h 0mn
Bit rate mode                            : Constant
Bit rate                                 : 384 Kbps
Channel(s)                               : 6 channels
Channel positions                        : Front: L C R, Side: L R, LFE
Sampling rate                            : 48.0 KHz
Bit depth                                : 16 bits
Compression mode                         : Lossy
Delay relative to video                  : 1mn 5s
Stream size                              : 332 MiB (14%)
Title                                    : AC3 5.1
Language                                 : English
Default                                  : No
Forced                                   : No

Menu
00:00:00.000                             : :Chapter 1
00:01:31.758                             : :Chapter 2
00:01:58.577                             : :Chapter 3
00:04:54.127                             : :Chapter 4
00:05:33.041                             : :Chapter 5
00:05:51.893                             : :Chapter 6
00:06:24.092                             : :Chapter 7
00:06:55.498                             : :Chapter 8
00:07:06.635                             : :Chapter 9
00:07:35.622                             : :Chapter 10
00:07:53.765                             : :Chapter 11
00:08:09.781                             : :Chapter 12
00:08:21.793                             : :Chapter 13
00:08:38.935                             : :Chapter 14
00:09:08.840                             : :Chapter 15
00:09:44.375                             : :Chapter 16
00:11:32.233                             : :Chapter 17
00:11:41.075                             : :Chapter 18
00:12:05.725                             : :Chapter 19
00:13:03.783                             : :Chapter 20
00:15:24.674                             : :Chapter 21
00:15:58.291                             : :Chapter 22
00:16:19.186                             : :Chapter 23
00:16:54.347                             : :Chapter 24
00:17:58.327                             : :Chapter 25
00:19:33.547                             : :Chapter 26
00:20:02.993                             : :Chapter 27
00:20:55.963                             : :Chapter 28
00:23:04.633                             : :Chapter 29
00:23:50.179                             : :Chapter 30
00:23:59.688                             : :Chapter 31
00:24:13.994                             : :Chapter 32
00:24:20.709                             : :Chapter 33
00:25:47.588                             : :Chapter 34
00:28:22.617                             : :Chapter 35
00:28:39.426                             : :Chapter 36
00:31:49.908                             : :Chapter 37
00:32:04.589                             : :Chapter 38
00:32:13.640                             : :Chapter 39
00:34:11.174                             : :Chapter 40
00:35:14.571                             : :Chapter 41
00:36:09.834                             : :Chapter 42
01:31:39.244                             : :Chapter 43
01:32:20.660                             : :Chapter 44
01:32:41.014                             : :Chapter 45
01:33:19.969                             : :Chapter 46
01:34:56.524                             : :Chapter 47
01:41:27.832                             : :Chapter 48
01:41:36.382                             : :Chapter 49
01:42:24.722                             : :Chapter 50
01:46:59.496                             : :Chapter 51


Info: Per scaricare devi usare un client come uTorrent o Transmission
AnnounceURL
udp://tracker.coppersurfer.tk:6969/announce
Hash 1177465d97336a21dc01b8d00a6f278a65250aa6
Peers seeds: 219 , leech: 31
Size 2.25 GB
Completato 8026x
Aggiunto 05.12.18 - 11:12:16
Uploader   robbyrs
Votazione (Voti: 1)


Condividi questo bittorrent:


html/blog:


bbcode/forum:




Aggiungi Commento