* Dettagli Torrent   globale  | Commenti (0) 


- Fair Game - Caccia alla spia (2010).720p.H264.italian.english.Ac3-5.1.sub.ita.eng-MIRCrew -


Download via torrent:
Categoria bittorrent BDRip
Descrizione
Visitate mircrew-releases

Fair Game - Caccia alla spia (2010).720p.H264.italian.english.Ac3-5.1.sub.ita.eng-MIRCrew


NO FOUND ONLY ORIGINAL RELEASE



My release is always in double track audio italian and Original audio
for select it use VLC or dvd player home
not use wmp

Fair Game - Caccia alla spia

(2010)

Quality MIRCrew on HD 720p da  1,8 gb








Titolo originale Fair Game
Lingua originale inglese
Paese di produzione Stati Uniti d'America
Anno 2010
Durata 108 min
Genere biografico, drammatico, thriller
Regia Doug Liman
Soggetto Valerie Plame, Joseph C. Wilson
Sceneggiatura Jez Butterworth,



   Naomi Watts: Valerie Plame
   Sean Penn: Joseph C. Wilson
   Sam Shepard: Sam Plame
   David Andrews: Lewis Libby
   Noah Emmerich: Bill
   Michael Kelly: Jack
   Bruce McGill: Jim Pavitt
   Brooke Smith: Diana
   Tim Griffin: Paul
   Ty Burrell: Fred
   David Denman: Dave
   Khaled Nabawy: Hamed
   Liraz Charhi: dr.ssa Zahraa
   Satya Bhabha: Jason Neal



Valerie Plame è un agente sotto copertura della CIA, che opera nel settore che indaga sulla proliferazione delle armi nucleari. In particolare nel 2002 si occupa con tutto il suo ufficio di verificare i programmi in corso dell'Iraq in merito alla realizzazione di armi di distruzione di massa.



CIA operative Valerie Plame discovers her identity is allegedly leaked by the government as payback for an op-ed article her husband wrote criticizing the Bush administration.








General
Unique ID                                : 189664327881888580178881625478234004677 (0x8EB0055618BEE1B894FD87C2F51A5CC5)
Complete name                            : Fair Game (2010).720p.h264.ita.eng.sub.ita.eng-MIRCrewFair Game (2010).720p.h264.ita.eng.sub.ita.eng-MIRCrew.mkv
Format                                   : Matroska
Format version                           : Version 2
File size                                : 1.82 GiB
Duration                                 : 1h 47mn
Overall bit rate                         : 2 419 Kbps
Encoded date                             : UTC 2018-12-01T14:09:00Z
Writing application                      : HandBrake 0.10.5 2016021100
Writing library                          : Lavf55.12.0

Video
ID                                       : 1
Format                                   : AVC
Format/Info                              : Advanced Video Codec
Format profile                           : High@L4.1
Format settings, CABAC                   : Yes
Format settings, ReFrames                : 4 frames
Codec ID                                 : V_MPEG4/ISO/AVC
Duration                                 : 1h 47mn
Bit rate                                 : 1 795 Kbps
Nominal bit rate                         : 1 900 Kbps
Width                                    : 1 280 pixels
Height                                   : 544 pixels
Display aspect ratio                     : 2.35:1
Frame rate mode                          : Variable
Frame rate                               : 24.000 fps
Color space                              : YUV
Chroma subsampling                       : 4:2:0
Bit depth                                : 8 bits
Scan type                                : Progressive
Bits/(Pixel*Frame)                       : 0.107
Stream size                              : 1.35 GiB (74%)
Writing library                          : x264 core 142 r2479 dd79a61
Encoding settings                        : cabac=1 / ref=3 / deblock=1:0:0 / analyse=0x3:0x113 / me=hex / subme=7 / psy=1 / psy_rd=1.00:0.00 / mixed_ref=1 / me_range=16 / chroma_me=1 / trellis=1 / 8x8dct=1 / cqm=0 / deadzone=21,11 / fast_pskip=1 / chroma_qp_offset=-2 / threads=6 / lookahead_threads=1 / sliced_threads=0 / nr=0 / decimate=1 / interlaced=0 / bluray_compat=0 / constrained_intra=0 / bframes=3 / b_pyramid=2 / b_adapt=1 / b_bias=0 / direct=1 / weightb=1 / open_gop=0 / weightp=2 / keyint=240 / keyint_min=24 / scenecut=40 / intra_refresh=0 / rc_lookahead=40 / rc=abr / mbtree=1 / bitrate=1900 / ratetol=1.0 / qcomp=0.60 / qpmin=0 / qpmax=69 / qpstep=4 / vbv_maxrate=62500 / vbv_bufsize=78125 / nal_hrd=none / filler=0 / ip_ratio=1.40 / aq=1:1.00
Default                                  : Yes
Forced                                   : No
Color primaries                          : BT.709-5, BT.1361, IEC 61966-2-4, SMPTE RP177
Transfer characteristics                 : BT.709-5, BT.1361
Matrix coefficients                      : BT.709-5, BT.1361, IEC 61966-2-4 709, SMPTE RP177

Audio #1
ID                                       : 2
Format                                   : AC-3
Format/Info                              : Audio Coding 3
Mode extension                           : CM (complete main)
Codec ID                                 : A_AC3
Duration                                 : 1h 47mn
Bit rate mode                            : Constant
Bit rate                                 : 384 Kbps
Channel(s)                               : 6 channels
Channel positions                        : Front: L C R, Side: L R, LFE
Sampling rate                            : 48.0 KHz
Bit depth                                : 16 bits
Compression mode                         : Lossy
Delay relative to video                  : 1mn 5s
Stream size                              : 296 MiB (16%)
Title                                    : Surround
Language                                 : Italian
Default                                  : Yes
Forced                                   : No

Audio #2
ID                                       : 3
Format                                   : AC-3
Format/Info                              : Audio Coding 3
Mode extension                           : CM (complete main)
Codec ID                                 : A_AC3
Duration                                 : 1h 47mn
Bit rate mode                            : Constant
Bit rate                                 : 192 Kbps
Channel(s)                               : 2 channels
Channel positions                        : Front: L R
Sampling rate                            : 48.0 KHz
Bit depth                                : 16 bits
Compression mode                         : Lossy
Delay relative to video                  : 1mn 5s
Stream size                              : 148 MiB (8%)
Title                                    : Stereo
Language                                 : English
Default                                  : No
Forced                                   : No

Menu
00:00:00.000                             : :Trust is Something You Earn
00:05:13.583                             : :What Would You Do?
00:09:18.458                             : :Head Up Operations
00:14:46.625                             : :Trip to Niger
00:21:16.750                             : :You Want Me to Become a Spy
00:27:57.208                             : :Are You 100% Sure
00:34:54.583                             : :How Do You Lie to Someone's Face?
00:41:09.833                             : :There is No Weapons Program
00:49:06.375                             : :These Scientists are the WMD
00:54:22.625                             : :Need to Change the Story
01:00:03.375                             : :I Do Want to Comment
01:06:51.333                             : :Named Sources
01:11:46.041                             : :Wilson's Wife is Fair Game
01:17:38.250                             : :Could I Tell if You Were Lying to Me?
01:21:45.458                             : :I Don't Have a Breaking Point
01:27:11.458                             : :Shame on You
01:30:19.416                             : :They Do Not Get to Take My Marriage
01:37:39.583                             : romise to Tell the Truth

Info: Per scaricare devi usare un client come uTorrent o Transmission
AnnounceURL
udp://tracker.coppersurfer.tk:6969/announce
Hash 62c3998b10e85c39f55b97db26734cfdcf4a31e1
Peers seeds: 32 , leech: 7
Size 1.82 GB
Completato 545x
Aggiunto 04.12.18 - 12:12:30
Uploader   robbyrs
Votazione (Voti: 0)


Condividi questo bittorrent:


html/blog:


bbcode/forum:




Aggiungi Commento