* Dettagli Torrent   globale  | Commenti (0) 


- Private Life (2018).720p.H264.italian.english.Ac3-5.1.sub.ita.eng-MIRCrew -


Download via torrent:
Categoria bittorrent BDRip
Descrizione
Visitate mircrew-releases


Private Life 2018.720p.H264.italian.english.Ac3-5.1.sub.ita.eng-MIRCrew


NO FOUND ONLY ORIGINAL RELEASE

My release is always in double track audio italian and Original audio
for select it use VLC or dvd player home
not use wmp

Private Life

2018

Quality MIRCrew on HD 720p da  2,2 gb








GENERE: Drammatico, Commedia
ANNO: 2018
REGIA: Tamara Jenkins
PAESE: USA
DURATA: 124 Min
SCENEGGIATURA: Tamara Jenkins
FOTOGRAFIA: Christos Voudouris



Kathryn Hahn, Paul Giamatti, Kayli Carter, Molly Shannon, Siobhan Fallon Hogan, Emily Robinson, Francesca Root-Dodson, Desmin Borges, Lizzy DeClement, Tracee Chimo



Private Life, diretto da Tamara Jenkins, racconta la storia di Richard (Paul Giamatti) e Rachel (Kathryn Hahn), una coppia che non riesce ad avere figli e cerca di salvare il proprio matrimonio. Tra riproduzione assistita e adozione domestica, ai due, ormai demoralizzati e al limite della mezza età, non resta che una terza scelta, che coinvolgerà la giovane Sadie (Kayli Carter)



Richard and Rachel, a couple in the throes of infertility, try to maintain their marriage as they descend deeper and deeper into the weird world of assisted reproduction and domestic adoption. When their doctor suggests third party reproduction, they bristle. But when Sadie, a recent college drop out, re-enters their life, they reconsider.  








General
Unique ID                                : 282547591495148581432570858885396080993 (0xD490AFCCB7D3A2DD0BF2374BDEC8A961)
Complete name                            : Private Life (201.720p.h264.ita.eng.sub.ita.eng-MIRCrewPrivate Life (201.720p.h264.ita.eng.sub.ita.eng-MIRCrew.mkv
Format                                   : Matroska
Format version                           : Version 4 / Version 2
File size                                : 2.26 GiB
Duration                                 : 2h 4mn
Overall bit rate                         : 2 609 Kbps
Movie name                               : MIRCrew
Encoded date                             : UTC 2018-10-05 09:14:25
Writing application                      : mkvmerge v26.0.0 ('In The Game&#39 64-bit
Writing library                          : Lavf54.63.100

Video
ID                                       : 1
Format                                   : AVC
Format/Info                              : Advanced Video Codec
Format profile                           : Main@L4.1
Format settings, CABAC                   : Yes
Format settings, ReFrames                : 2 frames
Codec ID                                 : V_MPEG4/ISO/AVC
Duration                                 : 2h 4mn
Bit rate                                 : 1 789 Kbps
Nominal bit rate                         : 1 900 Kbps
Width                                    : 1 280 pixels
Height                                   : 720 pixels
Display aspect ratio                     : 16:9
Frame rate mode                          : Variable
Frame rate                               : 23.976 fps
Color space                              : YUV
Chroma subsampling                       : 4:2:0
Bit depth                                : 8 bits
Scan type                                : Progressive
Bits/(Pixel*Frame)                       : 0.081
Stream size                              : 1.55 GiB (69%)
Title                                    : MIRCrew
Writing library                          : x264 core 130 r2273
Encoding settings                        : cabac=1 / ref=2 / deblock=1:0:0 / analyse=0x1:0x131 / me=hex / subme=7 / psy=1 / psy_rd=1.00:0.00 / mixed_ref=0 / me_range=16 / chroma_me=1 / trellis=1 / 8x8dct=0 / cqm=0 / deadzone=21,11 / fast_pskip=1 / chroma_qp_offset=-2 / threads=6 / lookahead_threads=1 / sliced_threads=0 / nr=0 / decimate=1 / interlaced=0 / bluray_compat=0 / constrained_intra=0 / bframes=3 / b_pyramid=0 / b_adapt=1 / b_bias=0 / direct=3 / weightb=1 / open_gop=0 / weightp=2 / keyint=230 / keyint_min=23 / scenecut=40 / intra_refresh=0 / rc_lookahead=40 / rc=abr / mbtree=1 / bitrate=1900 / ratetol=1.0 / qcomp=0.60 / qpmin=10 / qpmax=69 / qpstep=4 / vbv_maxrate=24000 / vbv_bufsize=24000 / nal_hrd=none / ip_ratio=1.40 / aq=1:1.00
Language                                 : Italian
Default                                  : Yes
Forced                                   : No
DURATION                                 : 02:04:07.816000000
NUMBER_OF_FRAMES                         : 178569
NUMBER_OF_BYTES                          : 1712557780
_STATISTICS_WRITING_APP                  : mkvmerge v26.0.0 ('In The Game&#39 64-bit
_STATISTICS_WRITING_DATE_UTC             : 2018-10-31 16:47:42
_STATISTICS_TAGS                         : BPS DURATION NUMBER_OF_FRAMES NUMBER_OF_BYTES

Audio #1
ID                                       : 2
Format                                   : AC-3
Format/Info                              : Audio Coding 3
Mode extension                           : CM (complete main)
Codec ID                                 : A_AC3
Duration                                 : 2h 4mn
Bit rate mode                            : Constant
Bit rate                                 : 384 Kbps
Channel(s)                               : 6 channels
Channel positions                        : Front: L C R, Side: L R, LFE
Sampling rate                            : 48.0 KHz
Bit depth                                : 16 bits
Compression mode                         : Lossy
Delay relative to video                  : -5ms
Stream size                              : 341 MiB (15%)
Title                                    : Ita Ac3 5.1
Language                                 : Italian
Default                                  : Yes
Forced                                   : No
DURATION                                 : 02:04:07.808000000
NUMBER_OF_FRAMES                         : 232744
NUMBER_OF_BYTES                          : 357494784
_STATISTICS_WRITING_APP                  : mkvmerge v26.0.0 ('In The Game&#39 64-bit
_STATISTICS_WRITING_DATE_UTC             : 2018-10-31 16:47:42
_STATISTICS_TAGS                         : BPS DURATION NUMBER_OF_FRAMES NUMBER_OF_BYTES

Audio #2
ID                                       : 3
Format                                   : AC-3
Format/Info                              : Audio Coding 3
Mode extension                           : CM (complete main)
Codec ID                                 : A_AC3
Duration                                 : 2h 4mn
Bit rate mode                            : Constant
Bit rate                                 : 384 Kbps
Channel(s)                               : 6 channels
Channel positions                        : Front: L C R, Side: L R, LFE
Sampling rate                            : 48.0 KHz
Bit depth                                : 16 bits
Compression mode                         : Lossy
Delay relative to video                  : -5ms
Stream size                              : 341 MiB (15%)
Title                                    : Eng Ac3 5.1
Language                                 : English
Default                                  : No
Forced                                   : No
DURATION                                 : 02:04:08.096000000
NUMBER_OF_FRAMES                         : 232753
NUMBER_OF_BYTES                          : 357508608
_STATISTICS_WRITING_APP                  : mkvmerge v26.0.0 ('In The Game&#39 64-bit
_STATISTICS_WRITING_DATE_UTC             : 2018-10-31 16:47:42
_STATISTICS_TAGS                         : BPS DURATION NUMBER_OF_FRAMES NUMBER_OF_BYTES

Info: Per scaricare devi usare un client come uTorrent o Transmission
AnnounceURL
udp://tracker.coppersurfer.tk:6969/announce
Hash 241107fdcfa47ce17acdb41e8e74c0829227bafb
Peers seeds: 87 , leech: 20
Size 2.26 GB
Completato 1905x
Aggiunto 03.12.18 - 12:12:40
Uploader   robbyrs
Votazione (Voti: 0)


Condividi questo bittorrent:


html/blog:


bbcode/forum:




Aggiungi Commento