* Dettagli Torrent   globale  | Commenti (0) 


- I tre caballeros - The Three Caballeros (1944).720p.H264.italian.english.Ac3-5.1.sub.ita.eng-MIRCrew -


Download via torrent:
Categoria bittorrent BDRip
Descrizione
Visitate mircrew-releases


I tre caballeros - The Three Caballeros (1944).720p.H264.italian.english.Ac3-5.1.sub.ita.eng-MIRCrew


NO FOUND ONLY ORIGINAL RELEASE

My release is always in double track audio italian and Original audio
for select it use VLC or dvd player home
not use wmp

I tre caballeros

The Three Caballeros


(1944)

Quality MIRCrew on HD 720p da  1,3 gb









Titolo originale The Three Caballeros
Lingua originale inglese, spagnolo, portoghese
Paese di produzione Stati Uniti d'America
Anno 1944
Durata 71 min
Genere animazione, fantastico, musicale
Regia Norman Ferguson, Clyde Geron



   Aurora Miranda: ragazza brasiliana
   Carmen Molina: prima ragazza messicana
   Dora Luz: seconda ragazza messicana
   Trío Ascensio del Rio: loro stessi
   Padua Hills Players: loro stessi
   Billy Daniel: ballerino brasiliano

Doppiatori originali

   Sterling Holloway: narratore
   Clarence Nash: Paperino
   José Oliveira: José Carioca
   Joaquin Garay: Panchito
   Frank Graham: primo narratore
   Fred Shields: secondo narratore
   Pinto Colvig: Aracuan



Il film è composto da vari segmenti, collegati da un tema comune. Nel film, è il compleanno di Paperino, e lui riceve tre regali dagli amici in America Latina. Il primo regalo è un proiettore cinematografico, che gli mostra un documentario sugli uccelli. Nel corso del documentario, viene a conoscenza dell'Aracuan, il cui nome è dovuto alla sua eccentrica canzone. L'Aracuan fa anche diverse apparizioni lungo tutto il film.



A large box arrives for Donald on his birthday, three gifts inside. He unwraps one at a time, and each takes him on an adventure. The first is a movie projector with a film about the birds of South America; Donald watches two cartoons, one tells of a penguin who longs to live on a tropical isle and the other about a gaucho boy who hunts the wild ostrich. The second gift is a pop-up book about Brazil. Inside is Jose Carioca, who takes Donald to Brazil's Bahia for a mix of animation and live action: the two cartoon birds sing and dance with natives. The third gift is a piñata, accompanied by Panchito










General
Unique ID                                : 202797096313427337738778564263208741270 (0x98914CCF95842CFA3A743AE25946E996)
Complete name                            : I tre caballeros - The Three Caballeros (1944).720p.h264.ita.eng.sub.ita.eng-MIRCrewI tre caballeros - The Three Caballeros (1944).720p.h264.ita.eng.sub.ita.eng-MIRCrew.mkv
Format                                   : Matroska
Format version                           : Version 2
File size                                : 1.35 GiB
Duration                                 : 1h 11mn
Overall bit rate                         : 2 702 Kbps
Movie name                               : MIRCrew
Encoded date                             : UTC 2018-11-07 18:43:00
Writing application                      : Lavf54.63.100
Writing library                          : Lavf54.63.100

Video
ID                                       : 1
Format                                   : AVC
Format/Info                              : Advanced Video Codec
Format profile                           : Main@L4.1
Format settings, CABAC                   : Yes
Format settings, ReFrames                : 2 frames
Codec ID                                 : V_MPEG4/ISO/AVC
Duration                                 : 1h 11mn
Bit rate                                 : 1 900 Kbps
Width                                    : 960 pixels
Height                                   : 720 pixels
Display aspect ratio                     : 4:3
Original display aspect ratio            : 4:3
Frame rate mode                          : Variable
Frame rate                               : 23.976 fps
Color space                              : YUV
Chroma subsampling                       : 4:2:0
Bit depth                                : 8 bits
Scan type                                : Progressive
Bits/(Pixel*Frame)                       : 0.115
Stream size                              : 963 MiB (70%)
Writing library                          : x264 core 130 r2273
Encoding settings                        : cabac=1 / ref=2 / deblock=1:0:0 / analyse=0x1:0x131 / me=hex / subme=7 / psy=1 / psy_rd=1.00:0.00 / mixed_ref=0 / me_range=16 / chroma_me=1 / trellis=1 / 8x8dct=0 / cqm=0 / deadzone=21,11 / fast_pskip=1 / chroma_qp_offset=-2 / threads=3 / lookahead_threads=1 / sliced_threads=0 / nr=0 / decimate=1 / interlaced=0 / bluray_compat=0 / constrained_intra=0 / bframes=3 / b_pyramid=0 / b_adapt=1 / b_bias=0 / direct=3 / weightb=1 / open_gop=0 / weightp=2 / keyint=230 / keyint_min=23 / scenecut=40 / intra_refresh=0 / rc_lookahead=40 / rc=abr / mbtree=1 / bitrate=1900 / ratetol=1.0 / qcomp=0.60 / qpmin=10 / qpmax=69 / qpstep=4 / vbv_maxrate=24000 / vbv_bufsize=24000 / nal_hrd=none / ip_ratio=1.40 / aq=1:1.00
Language                                 : Italian
Default                                  : Yes
Forced                                   : No
DURATION                                 : 01:11:37.756000000
NUMBER_OF_FRAMES                         : 103043
NUMBER_OF_BYTES                          : 2624184124
_STATISTICS_WRITING_APP                  : mkvmerge v9.8.0 ('Kuglblids&#39 64bit
_STATISTICS_WRITING_DATE_UTC             : 2017-04-16 20:26:28
_STATISTICS_TAGS                         : BPS DURATION NUMBER_OF_FRAMES NUMBER_OF_BYTES

Audio #1
ID                                       : 2
Format                                   : AC-3
Format/Info                              : Audio Coding 3
Mode extension                           : CM (complete main)
Codec ID                                 : A_AC3
Duration                                 : 1h 11mn
Bit rate mode                            : Constant
Bit rate                                 : 384 Kbps
Channel(s)                               : 6 channels
Channel positions                        : Front: L C R, Side: L R, LFE
Sampling rate                            : 48.0 KHz
Bit depth                                : 16 bits
Compression mode                         : Lossy
Delay relative to video                  : 1mn 5s
Stream size                              : 197 MiB (14%)
Language                                 : Italian
Default                                  : Yes
Forced                                   : No
DURATION                                 : 01:11:37.728000000
NUMBER_OF_FRAMES                         : 134304
NUMBER_OF_BYTES                          : 206290944
_STATISTICS_WRITING_APP                  : mkvmerge v9.8.0 ('Kuglblids&#39 64bit
_STATISTICS_WRITING_DATE_UTC             : 2017-04-16 20:26:28
_STATISTICS_TAGS                         : BPS DURATION NUMBER_OF_FRAMES NUMBER_OF_BYTES

Audio #2
ID                                       : 3
Format                                   : AC-3
Format/Info                              : Audio Coding 3
Mode extension                           : CM (complete main)
Codec ID                                 : A_AC3
Duration                                 : 1h 11mn
Bit rate mode                            : Constant
Bit rate                                 : 384 Kbps
Channel(s)                               : 6 channels
Channel positions                        : Front: L C R, Side: L R, LFE
Sampling rate                            : 48.0 KHz
Bit depth                                : 16 bits
Compression mode                         : Lossy
Delay relative to video                  : 1mn 5s
Stream size                              : 197 MiB (14%)
Language                                 : English
Default                                  : No
Forced                                   : No
DURATION                                 : 01:11:37.728000000
NUMBER_OF_FRAMES                         : 134304
NUMBER_OF_BYTES                          : 206290944
_STATISTICS_WRITING_APP                  : mkvmerge v9.8.0 ('Kuglblids&#39 64bit
_STATISTICS_WRITING_DATE_UTC             : 2017-04-16 20:26:28
_STATISTICS_TAGS                         : BPS DURATION NUMBER_OF_FRAMES NUMBER_OF_BYTES


Info: Per scaricare devi usare un client come uTorrent o Transmission
AnnounceURL
udp://tracker.coppersurfer.tk:6969/announce
Hash 713235d64377a76c1723fca1220d5ee46ea97b97
Peers seeds: 15 , leech: 3
Size 1.35 GB
Completato 470x
Aggiunto 01.12.18 - 16:12:31
Uploader   robbyrs
Votazione (Voti: 0)


Condividi questo bittorrent:


html/blog:


bbcode/forum:




Aggiungi Commento