* Dettagli Torrent   globale  | Commenti (0) 


- Con la rabbia agli occhi (1976).H264.italian.english.Ac3-sub.eng-MIRCrew -


Download via torrent:
Categoria bittorrent BDRip
Descrizione
Visitate mircrew-releases

Death Rage - Con la rabbia agli occhi (1976).H264.italian.english.Ac3-sub.eng-MIRCrew


NO FOUND ONLY ORIGINAL RELEASE


My release is always in double track audio italian and Original audio
for select it use VLC or dvd player home
not use wmp

Con la rabbia agli occhi

Death Rage

(1976)








Titolo originale Con la rabbia agli occhi
Lingua originale italiano
Paese di produzione Italia
Anno 1976
Durata 91 min
Genere poliziesco
Regia Anthony M. Dawson (Antonio Margheriti)
Soggetto Pierluigi Andreani,
Leila Bongiorno
Sceneggiatura Guido Castaldo,
Giacomo Furia



   Yul Brynner: Peter Marciani
   Massimo Ranieri: Angelo
   Barbara Bouchet: Annie
   Martin Balsam: commissario
   Giacomo Furia: brigadiere Cannavale
   Sal Borgese: Vincent, sicario di Gallo
   Loris Bazzocchi: Pasquale
   Rosario Borelli: sicario
   Luigi Williams: Peppiniello
   Renzo Marignano: oculista
   Giancarlo Sbragia: Gennaro Gallo



Peter Marciani, un sicario della mafia statunitense, riceve l'incarico d'uccidere Gennaro Gallo, grosso esponente della camorra che in passato fu anche il mandante d'un agguato ai danni di Peter e suo fratello; Peter si salvò, ma suo fratello morì freddato dal sicario.



A retired hit-man decides to take one last job to avenge the murder of his brother by a mafia gang. An eager would-be mobster helps him.









General
Unique ID                                : 160824296801816569881281778483313389044 (0x78FDA205B4B08F5636E30E259C022DF4)
Complete name                            : Con la rabbia agli occhi - Death Rage (1976).h246.ita.eng.sub.eng-MIRCrewCon la rabbia agli occhi - Death Rage (1976).h246.ita.eng.sub.eng-MIRCrew - Death Rage (1976).h246.ita.eng.sub.eng-MIRCrew.mkv
Format                                   : Matroska
Format version                           : Version 2
File size                                : 1.07 GiB
Duration                                 : 1h 33mn
Overall bit rate                         : 1 641 Kbps
Movie name                               : MIRCrew
Encoded date                             : UTC 2016-06-03T17:34:05Z
Writing application                      : Lavf54.63.100
Writing library                          : Lavf54.63.100
COMMENT                                  : mircrew-releases

Video
ID                                       : 1
Format                                   : AVC
Format/Info                              : Advanced Video Codec
Format profile                           : Main@L4.1
Format settings, CABAC                   : Yes
Format settings, ReFrames                : 2 frames
Codec ID                                 : V_MPEG4/ISO/AVC
Duration                                 : 1h 33mn
Bit rate                                 : 1 250 Kbps
Width                                    : 720 pixels
Height                                   : 404 pixels
Display aspect ratio                     : 1.881
Original display aspect ratio            : 1.882
Frame rate mode                          : Variable
Frame rate                               : 25.000 fps
Color space                              : YUV
Chroma subsampling                       : 4:2:0
Bit depth                                : 8 bits
Scan type                                : Progressive
Bits/(Pixel*Frame)                       : 0.172
Stream size                              : 816 MiB (75%)
Title                                    : MIRCrew
Writing library                          : x264 core 130 r2273
Encoding settings                        : cabac=1 / ref=2 / deblock=1:0:0 / analyse=0x1:0x131 / me=hex / subme=7 / psy=1 / psy_rd=1.00:0.00 / mixed_ref=0 / me_range=16 / chroma_me=1 / trellis=1 / 8x8dct=0 / cqm=0 / deadzone=21,11 / fast_pskip=1 / chroma_qp_offset=-2 / threads=6 / lookahead_threads=1 / sliced_threads=0 / nr=0 / decimate=1 / interlaced=0 / bluray_compat=0 / constrained_intra=0 / bframes=3 / b_pyramid=0 / b_adapt=1 / b_bias=0 / direct=3 / weightb=1 / open_gop=0 / weightp=2 / keyint=250 / keyint_min=25 / scenecut=40 / intra_refresh=0 / rc_lookahead=40 / rc=abr / mbtree=1 / bitrate=1250 / ratetol=1.0 / qcomp=0.60 / qpmin=10 / qpmax=69 / qpstep=4 / vbv_maxrate=24000 / vbv_bufsize=24000 / nal_hrd=none / ip_ratio=1.40 / aq=1:1.00
Language                                 : Italian
Default                                  : Yes
Forced                                   : No
DURATION                                 : 01:33:09.920000000
NUMBER_OF_FRAMES                         : 139748
NUMBER_OF_BYTES                          : 921222088
_STATISTICS_WRITING_APP                  : mkvmerge v26.0.0 ('In The Game&#39 64-bit
_STATISTICS_WRITING_DATE_UTC             : 2018-11-27 20:03:09
_STATISTICS_TAGS                         : BPS DURATION NUMBER_OF_FRAMES NUMBER_OF_BYTES

Audio #1
ID                                       : 2
Format                                   : AC-3
Format/Info                              : Audio Coding 3
Mode extension                           : CM (complete main)
Codec ID                                 : A_AC3
Duration                                 : 1h 33mn
Bit rate mode                            : Constant
Bit rate                                 : 192 Kbps
Channel(s)                               : 2 channels
Channel positions                        : Front: L R
Sampling rate                            : 48.0 KHz
Bit depth                                : 16 bits
Compression mode                         : Lossy
Delay relative to video                  : 1mn 5s
Stream size                              : 128 MiB (12%)
Title                                    : Eng Ac3
Language                                 : Italian
Default                                  : Yes
Forced                                   : No
DURATION                                 : 01:33:09.984000000
NUMBER_OF_FRAMES                         : 174687
NUMBER_OF_BYTES                          : 134159616
_STATISTICS_WRITING_APP                  : mkvmerge v26.0.0 ('In The Game&#39 64-bit
_STATISTICS_WRITING_DATE_UTC             : 2018-11-27 20:03:09
_STATISTICS_TAGS                         : BPS DURATION NUMBER_OF_FRAMES NUMBER_OF_BYTES

Audio #2
ID                                       : 3
Format                                   : AC-3
Format/Info                              : Audio Coding 3
Mode extension                           : CM (complete main)
Codec ID                                 : A_AC3
Duration                                 : 1h 33mn
Bit rate mode                            : Constant
Bit rate                                 : 192 Kbps
Channel(s)                               : 2 channels
Channel positions                        : Front: L R
Sampling rate                            : 48.0 KHz
Bit depth                                : 16 bits
Compression mode                         : Lossy
Delay relative to video                  : 1mn 5s
Stream size                              : 128 MiB (12%)
Title                                    : Ita Ac3
Language                                 : English
Default                                  : No
Forced                                   : No
DURATION                                 : 01:33:09.984000000
NUMBER_OF_FRAMES                         : 174687
NUMBER_OF_BYTES                          : 134159616
_STATISTICS_WRITING_APP                  : mkvmerge v26.0.0 ('In The Game&#39 64-bit
_STATISTICS_WRITING_DATE_UTC             : 2018-11-27 20:03:09
_STATISTICS_TAGS                         : BPS DURATION NUMBER_OF_FRAMES NUMBER_OF_BYTES

Menu
00:00:00.000                             : :Chapter 1
00:07:29.560                             : :Chapter 2
00:10:38.000                             : :Chapter 3
00:15:03.440                             : :Chapter 4
00:18:14.920                             : :Chapter 5
00:23:53.760                             : :Chapter 6
00:31:05.760                             : :Chapter 7
00:34:41.800                             : :Chapter 8
00:37:47.640                             : :Chapter 9
00:42:16.640                             : :Chapter 10
00:46:29.800                             : :Chapter 11
00:50:51.480                             : :Chapter 12
00:58:29.000                             : :Chapter 13
01:03:21.240                             : :Chapter 14
01:07:33.960                             : :Chapter 15
01:13:07.480                             : :Chapter 16
01:16:40.720                             : :Chapter 17
01:27:54.160                             : :Chapter 18



Info: Per scaricare devi usare un client come uTorrent o Transmission
AnnounceURL
udp://tracker.coppersurfer.tk:6969/announce
Hash 24ee73908082fb1704c2e57772d3a70ab5b1e53a
Peers seeds: 7 , leech: 1
Size 1.07 GB
Completato 238x
Aggiunto 01.12.18 - 13:12:42
Uploader   robbyrs
Votazione (Voti: 0)


Condividi questo bittorrent:


html/blog:


bbcode/forum:




Aggiungi Commento