* Dettagli Torrent   globale  | Commenti (0) 


- Il canto di Natale di Topolino (1983).H264.italian.english.Ac3-MIRCrew -


Download via torrent:
Categoria bittorrent BDRip
Descrizione
Visitate mircrew-releases


Mickey's Christmas Carol - Il canto di Natale di Topolino (1983).H264.italian.english.Ac3-MIRCrew


NO FOUND ONLY ORIGINAL RELEASE

My release is always in double track audio italian and Original audio
for select it use VLC or dvd player home
not use wmp

Il canto di Natale di Topolino

Mickey's Christmas Carol

(1983)








Titolo originale Mickey's Christmas Carol
Lingua originale inglese
Paese di produzione Stati Uniti d'America
Anno 1983
Durata 26 min
Rapporto 1.37:1
Genere Animazione, fantastico
Regia Burny Mattinson
Soggetto Charles Dickens



   Alan Young: Ebenezer Scrooge
   Wayne Allwine: Bob Cratchit, Donnola becchino, Cane mendicante
   Hal Smith: Fantasma di Jacob Marley, Collettore per i poveri n. 1
   Will Ryan: Collettore per i poveri n. 2, Spirito del Natale Presente, Spirito del Natale Futuro
   Eddie Carroll: Spirito del Natale Passato
   Patricia Parris: Isabelle
   Dick Billingsley: Piccolo Tim
   Clarence Nash: Fred



Nella vigilia di Natale del 1843, mentre tutta l'Inghilterra vittoriana è nello spirito allegro del Natale, Ebenezer Scrooge (Paperon de' Paperoni) pensa solo al denaro che ha guadagnato e a farne di più (a quanto pare, fa pagare alle persone l'80% di interesse composto giornalmente). Mentre i pensieri egoisti di Scrooge frullano nella sua testa, Bob Cratchit (Topolino), esausto e sottopagato (la miseria di due scellini e mezzo penny al giorno), continua a lavorare a lungo e duramente per lui



It's the same old classic Charles Dickens story with an all star Disney cast. Uncle Scrooge McDuck is appropriately enough Scrooge and is visited by his dead partner and 3 spirits one night to remember the joys of Christmas.









General
Unique ID                                : 274925958720390168712314557440312671897 (0xCED4D04AA384BD8764511804386AFE99)
Complete name                            : Canto di Natale di Topolino - Mickey's Christmas Carol (1983).H264.ita.eng-MIRCrewCanto di Natale di Topolino - Mickey's Christmas Carol (1983).H264.ita.eng-MIRCrew.mkv
Format                                   : Matroska
Format version                           : Version 2
File size                                : 421 MiB
Duration                                 : 25mn 39s
Overall bit rate                         : 2 295 Kbps
Movie name                               : MIRCrew
Encoded date                             : UTC 2018-11-30 13:40:28
Writing application                      : Lavf54.63.100
Writing library                          : Lavf54.63.100
COMMENT                                  : mircrew-releases

Video
ID                                       : 1
Format                                   : AVC
Format/Info                              : Advanced Video Codec
Format profile                           : Main@L4.1
Format settings, CABAC                   : Yes
Format settings, ReFrames                : 2 frames
Codec ID                                 : V_MPEG4/ISO/AVC
Duration                                 : 25mn 39s
Bit rate                                 : 1 900 Kbps
Width                                    : 720 pixels
Height                                   : 404 pixels
Display aspect ratio                     : 16:9
Frame rate mode                          : Variable
Frame rate                               : 23.976 fps
Color space                              : YUV
Chroma subsampling                       : 4:2:0
Bit depth                                : 8 bits
Scan type                                : Progressive
Bits/(Pixel*Frame)                       : 0.272
Stream size                              : 342 MiB (81%)
Writing library                          : x264 core 130 r2273
Encoding settings                        : cabac=1 / ref=2 / deblock=1:0:0 / analyse=0x1:0x131 / me=hex / subme=7 / psy=1 / psy_rd=1.00:0.00 / mixed_ref=0 / me_range=16 / chroma_me=1 / trellis=1 / 8x8dct=0 / cqm=0 / deadzone=21,11 / fast_pskip=1 / chroma_qp_offset=-2 / threads=6 / lookahead_threads=1 / sliced_threads=0 / nr=0 / decimate=1 / interlaced=0 / bluray_compat=0 / constrained_intra=0 / bframes=3 / b_pyramid=0 / b_adapt=1 / b_bias=0 / direct=3 / weightb=1 / open_gop=0 / weightp=2 / keyint=230 / keyint_min=23 / scenecut=40 / intra_refresh=0 / rc_lookahead=40 / rc=abr / mbtree=1 / bitrate=1900 / ratetol=1.0 / qcomp=0.60 / qpmin=10 / qpmax=69 / qpstep=4 / vbv_maxrate=24000 / vbv_bufsize=24000 / nal_hrd=none / ip_ratio=1.40 / aq=1:1.00
Language                                 : Italian
Default                                  : Yes
Forced                                   : No
DURATION                                 : 00:25:39.538000000
NUMBER_OF_FRAMES                         : 36912
NUMBER_OF_BYTES                          : 5100251042
_STATISTICS_WRITING_APP                  : mkvmerge v25.0.0 ('Prog Noir&#39 64-bit
_STATISTICS_WRITING_DATE_UTC             : 2018-08-03 14:38:40
_STATISTICS_TAGS                         : BPS DURATION NUMBER_OF_FRAMES NUMBER_OF_BYTES

Audio #1
ID                                       : 2
Format                                   : AC-3
Format/Info                              : Audio Coding 3
Mode extension                           : CM (complete main)
Codec ID                                 : A_AC3
Duration                                 : 25mn 39s
Bit rate mode                            : Constant
Bit rate                                 : 192 Kbps
Channel(s)                               : 2 channels
Channel positions                        : Front: L R
Sampling rate                            : 48.0 KHz
Bit depth                                : 16 bits
Compression mode                         : Lossy
Delay relative to video                  : 1mn 5s
Stream size                              : 35.2 MiB (8%)
Language                                 : Italian
Default                                  : Yes
Forced                                   : No
DURATION                                 : 00:25:39.456000000
NUMBER_OF_FRAMES                         : 48108
NUMBER_OF_BYTES                          : 73893888
_STATISTICS_WRITING_APP                  : mkvmerge v25.0.0 ('Prog Noir&#39 64-bit
_STATISTICS_WRITING_DATE_UTC             : 2018-08-03 14:38:40
_STATISTICS_TAGS                         : BPS DURATION NUMBER_OF_FRAMES NUMBER_OF_BYTES

Audio #2
ID                                       : 3
Format                                   : AC-3
Format/Info                              : Audio Coding 3
Mode extension                           : CM (complete main)
Codec ID                                 : A_AC3
Duration                                 : 25mn 39s
Bit rate mode                            : Constant
Bit rate                                 : 192 Kbps
Channel(s)                               : 2 channels
Channel positions                        : Front: L R
Sampling rate                            : 48.0 KHz
Bit depth                                : 16 bits
Compression mode                         : Lossy
Delay relative to video                  : 1mn 5s
Stream size                              : 35.2 MiB (8%)
Language                                 : English
Default                                  : No
Forced                                   : No
DURATION                                 : 00:25:39.584000000
NUMBER_OF_FRAMES                         : 48112
NUMBER_OF_BYTES                          : 61583360
_STATISTICS_WRITING_APP                  : mkvmerge v25.0.0 ('Prog Noir&#39 64-bit
_STATISTICS_WRITING_DATE_UTC             : 2018-08-03 14:38:40
_STATISTICS_TAGS                         : BPS DURATION NUMBER_OF_FRAMES NUMBER_OF_BYTES


Info: Per scaricare devi usare un client come uTorrent o Transmission
AnnounceURL
udp://tracker.coppersurfer.tk:6969/announce
Hash 23997fda77d9e0b2384cfcf500eda465573c68cd
Peers seeds: 107 , leech: 14
Size 421.22 MB
Completato 884x
Aggiunto 01.12.18 - 11:12:17
Uploader   robbyrs
Votazione (Voti: 0)


Condividi questo bittorrent:


html/blog:


bbcode/forum:




Aggiungi Commento